Mission: Impossible - Fallout (2018) 720p HD-CAMRip x264 [Dual Audio][Hindi+English] » WarezUsa
Mission: Impossible - Fallout (2018) 720p HD-CAMRip x264 [Dual Audio][Hindi+English]

Mission: Impossible - Fallout (2018) 720p HD-CAMRip x264 [Dual Audio][Hindi+English]







General
Format : Matroska
Format version : Version 4 / Version 2
File size : 1.40 GiB
Duration : 2 h 17 min
Overall bit rate : 1 453 kb/s

Video
ID : 1
Format : AVC
Format/Info : Advanced Video Codec
Format profile : [email protected]
Format settings : CABAC / 4 Ref Frames
Format settings, CABAC : Yes
Format settings, RefFrames : 4 frames
Codec ID : V_MPEG4/ISO/AVC
Duration : 2 h 17 min
Bit rate : 1 200 kb/s
Width : 1 270 pixels
Height : 606 pixels
Display aspect ratio : 2.096
Frame rate mode : Constant
Frame rate : 29.970 (30000/1001) FPS
Color space : YUV
Chroma subsampling : 4:2:0
Bit depth : 8 bits
Scan type : Progressive
Bits/(Pixel*Frame) : 0.052
Stream size : 1.15 GiB (82%)
Writing library : x264 core 155 r2901 7d0ff22
Default : Yes
Forced : No

Audio #1
ID : 2
Format : AAC
Format/Info : Advanced Audio Codec
Format profile : LC
Codec ID : A_AAC-2
Duration : 2 h 17 min
Bit rate : 159 kb/s
Channel(s) : 2 channels
Channel positions : Front: L R
Sampling rate : 48.0 kHz
Frame rate : 46.875 FPS (1024 SPF)
Compression mode : Lossy
Stream size : 156 MiB (11%)
Language : Hindi
Default : Yes
Forced : No

Audio #2
ID : 3
Format : AAC
Format/Info : Advanced Audio Codec
Format profile : LC
Codec ID : A_AAC-2
Duration : 2 h 17 min
Bit rate : 96.0 kb/s
Channel(s) : 2 channels
Channel positions : Front: L R
Sampling rate : 48.0 kHz
Frame rate : 46.875 FPS (1024 SPF)
Compression mode : Lossy
Stream size : 94.4 MiB (7%)
Language : English
Default : No
Forced : No 





SINGLE DIRECT FAST LINKS

http://www.heroupload.us/ce184bbfae8c7ee9/Mission.Impossible.Fallout.2018.720p.HDCAM.x264.Dual.Audio.Hindi.Cleaned+English-MW.mkv



http://filefloater.com/29Yh/Mission.Impossible.Fallout.2018.720p.HDCAM.x264.Dual.Audio.Hindi.Cleaned+English-MW.mkv



Buy Premium From My Links & Support Me
шаблоны для dle 11.2