Natak (1975) 480p - HD-DVDRip - AVC - AAC-Bollywooda2z » WarezUsa
Natak (1975) 480p - HD-DVDRip - AVC - AAC-Bollywooda2z

Natak (1975) 480p - HD-DVDRip - AVC - AAC-Bollywooda2z



General
Complete name               : E:\Download C 2\1975\Natak.mp4
Format                      : MPEG-4
Format profile              : Base Media
Codec ID                    : isom (isom)
File size                   : 1.32 GiB
Duration                    : 2 h 18 min
Overall bit rate mode       : Variable
Overall bit rate            : 1 368 kb/s
Encoded date                : UTC 2016-08-11 03:41:19
Tagged date                 : UTC 2016-08-11 03:41:19

Video
ID                          : 1
Format                      : AVC
Format/Info                 : Advanced Video Codec
Format profile              : [email protected]
Format settings, CABAC      : Yes
Format settings, RefFrames  : 8 frames
Codec ID                    : avc1
Codec ID/Info               : Advanced Video Coding
Duration                    : 2 h 18 min
Bit rate                    : 1 300 kb/s
Maximum bit rate            : 4 220 kb/s
Width                       : 704 pixels
Height                      : 480 pixels
Display aspect ratio        : 4:3
Frame rate mode             : Constant
Frame rate                  : 29.970 (30000/1001) FPS
Standard                    : NTSC
Color space                 : YUV
Chroma subsampling          : 4:2:0
Bit depth                   : 8 bits
Scan type                   : Progressive
Bits/(Pixel*Frame)          : 0.128
Stream size                 : 1.26 GiB (95%)
Writing library             : x264 core 146 r2538 121396c
Encoding settings           : cabac=1 / ref=8 / deblock=1:-1:-1 / analyse=0x1:0x131 / me=umh / subme=9 / psy=1 / psy_rd=1.00:0.15 / mixed_ref=1 / me_range=16 / chroma_me=1 / trellis=2 / 8x8dct=0 / cqm=0 / deadzone=21,11 / fast_pskip=1 / chroma_qp_offset=-3 / threads=12 / lookahead_threads=1 / sliced_threads=0 / nr=0 / decimate=1 / interlaced=0 / bluray_compat=0 / constrained_intra=0 / bframes=3 / b_pyramid=2 / b_adapt=2 / b_bias=0 / direct=3 / weightb=1 / open_gop=0 / weightp=2 / keyint=300 / keyint_min=29 / scenecut=40 / intra_refresh=0 / rc_lookahead=60 / rc=2pass / mbtree=1 / bitrate=1300 / ratetol=1.0 / qcomp=0.60 / qpmin=0 / qpmax=69 / qpstep=4 / cplxblur=20.0 / qblur=0.5 / vbv_maxrate=4000 / vbv_bufsize=4000 / nal_hrd=none / filler=0 / ip_ratio=1.40 / aq=1:1.00
Encoded date                : UTC 2016-08-10 18:11:54
Tagged date                 : UTC 2016-08-11 03:41:28

Audio
ID                          : 2
Format                      : AAC
Format/Info                 : Advanced Audio Codec
Format profile              : LC
Codec ID                    : 40
Duration                    : 2 h 18 min
Bit rate mode               : Variable
Bit rate                    : 63.9 kb/s
Maximum bit rate            : 85.5 kb/s
Channel(s)                  : 2 channels
Channel positions           : Front: L R
Sampling rate               : 48.0 kHz
Frame rate                  : 46.875 FPS (1024 SPF)
Compression mode            : Lossy
Stream size                 : 63.3 MiB (5%)
Language                    : Hindi
Encoded date                : UTC 2016-08-10 18:12:51
Tagged date                 : UTC 2016-08-11 03:41:28




SINGLE DIRECT FAST LINKS

http://www.heroupload.us/3d233639654d9ab5/Natak.mp4



http://filefloater.com/U9d/Natak.mp4



Buy Premium From My Links & Support Me
шаблоны для dle 11.2