Mayaanadhi (2018) Malayalam - 720p - WEB-HD - AVC - AAC - HC-ESub-TMV » WarezUsa
Mayaanadhi (2018) Malayalam - 720p - WEB-HD - AVC - AAC - HC-ESub-TMV

Mayaanadhi (2018) Malayalam - 720p - WEB-HD - AVC - AAC - HC-ESub-TMV





General
Format                      : MPEG-4
Format profile              : Base Media / Version 2
Codec ID                    : mp42 (mp42/mp41/isom/avc1)
File size                   : 1.70 GiB
Duration                    : 2 h 16 min
Overall bit rate mode       : Variable
Overall bit rate            : 1 792 kb/s
Encoded date                : UTC 2018-02-20 20:13:38
Tagged date                 : UTC 2018-02-20 20:13:38

Video
ID                          : 1
Format                      : AVC
Format/Info                 : Advanced Video Codec
Format profile              : [email protected]
Format settings, CABAC      : Yes
Format settings, RefFrames  : 5 frames
Codec ID                    : avc1
Codec ID/Info               : Advanced Video Coding
Duration                    : 2 h 16 min
Bit rate                    : 1 532 kb/s
Width                       : 1 280 pixels
Height                      : 720 pixels
Display aspect ratio        : 16:9
Frame rate mode             : Constant
Frame rate                  : 24.000 FPS
Color space                 : YUV
Chroma subsampling          : 4:2:0
Bit depth                   : 8 bits
Scan type                   : Progressive
Bits/(Pixel*Frame)          : 0.069
Stream size                 : 1.46 GiB (85%)
Writing library             : x264 core 155 r10 b00bcaf
Encoding settings           : cabac=1 / ref=5 / deblock=1:0:0 / analyse=0x3:0x113 / me=hex / subme=8 / psy=1 / psy_rd=1.00:0.00 / mixed_ref=1 / me_range=16 / chroma_me=1 / trellis=2 / 8x8dct=1 / cqm=0 / deadzone=21,11 / fast_pskip=1 / chroma_qp_offset=-2 / threads=22 / lookahead_threads=3 / sliced_threads=0 / nr=0 / decimate=1 / interlaced=0 / bluray_compat=0 / stitchable=1 / constrained_intra=0 / bframes=3 / b_pyramid=2 / b_adapt=2 / b_bias=0 / direct=3 / weightb=1 / open_gop=0 / weightp=2 / keyint=infinite / keyint_min=24 / scenecut=40 / intra_refresh=0 / rc_lookahead=50 / rc=crf / mbtree=1 / crf=20.0 / qcomp=0.60 / qpmin=5 / qpmax=69 / qpstep=4 / vbv_maxrate=2750 / vbv_bufsize=7500 / crf_max=0.0 / nal_hrd=none / filler=0 / ip_ratio=1.40 / aq=1:1.00
Encoded date                : UTC 2018-02-20 20:13:38
Tagged date                 : UTC 2018-02-20 20:13:38
Color range                 : Limited
Color primaries             : BT.709
Transfer characteristics    : BT.709
Matrix coefficients         : BT.709

Audio
ID                          : 2
Format                      : AAC
Format/Info                 : Advanced Audio Codec
Format profile              : LC
Codec ID                    : 40
Duration                    : 2 h 16 min
Bit rate mode               : Variable
Bit rate                    : 256 kb/s
Channel(s)                  : 2 channels
Channel positions           : Front: L R
Sampling rate               : 48.0 kHz
Frame rate                  : 46.875 FPS (1024 SPF)
Compression mode            : Lossy
Stream size                 : 249 MiB (14%)
Encoded date                : UTC 2018-02-20 20:13:38
Tagged date                 : UTC 2018-02-20 20:13:38






SINGLE DIRECT FAST LINKS

http://www.heroupload.us/a882a8e9e44aabc6/Mayaanadhi.2018.Malayalam.WEB-HD.720p.AAC.HC-ESub-TMV.mp4



http://filefloater.com/2zIy/Mayaanadhi.2018.Malayalam.WEB-HD.720p.AAC.HC-ESub-TMV.mp4




Buy Premium From My Links & Support Me
шаблоны для dle 11.2