Uncle (2018) Malayalam - 720p - HDTV - AVC - AAC-TMV » WarezUsa
Uncle (2018) Malayalam - 720p - HDTV - AVC - AAC-TMV

Uncle (2018) Malayalam - 720p - HDTV - AVC - AAC-TMV





File size                   : 2.55 GiB
Duration                    : 2 h 18 min
Overall bit rate mode       : Variable
Overall bit rate            : 2 624 kb/s
Writing application         : Lavf55.19.104

Video
ID                          : 1
Format                      : AVC
Format/Info                 : Advanced Video Codec
Format profile              : [email protected]
Format settings, CABAC      : No
Format settings, RefFrames  : 1 frame
Codec ID                    : avc1
Codec ID/Info               : Advanced Video Coding
Duration                    : 2 h 18 min
Bit rate mode               : Variable
Bit rate                    : 2 560 kb/s
Width                       : 1 280 pixels
Height                      : 720 pixels
Display aspect ratio        : 16:9
Frame rate mode             : Constant
Frame rate                  : 25.000 FPS
Standard                    : Component
Color space                 : YUV
Chroma subsampling          : 4:2:0
Bit depth                   : 8 bits
Scan type                   : Progressive
Bits/(Pixel*Frame)          : 0.111
Stream size                 : 2.48 GiB (97%)
Color range                 : Limited
Color primaries             : BT.709
Transfer characteristics    : BT.709
Matrix coefficients         : BT.709

Audio
ID                          : 2
Format                      : AAC
Format/Info                 : Advanced Audio Codec
Format profile              : LC
Codec ID                    : 40
Duration                    : 2 h 18 min
Bit rate mode               : Constant
Bit rate                    : 62.2 kb/s
Channel(s)                  : 2 channels
Channel positions           : Front: L R
Sampling rate               : 32.0 kHz
Frame rate                  : 31.250 FPS (1024 SPF)
Compression mode            : Lossy
Stream size                 : 61.8 MiB (2%)
Default                     : Yes
Alternate group             : 1






SINGLE DIRECT FAST LINKS
http://www.heroupload.us/5cccd7e58dfeaae9/Uncle.2018.Malayalam.True.HDTV.720p.UNTOUCHED.AVC.AAC-TMV.mp4


http://filefloater.com/29Pw/Uncle.2018.Malayalam.True.HDTV.720p.UNTOUCHED.AVC.AAC-TMV.mp4

700MB LINKS


http://www.heroupload.us/199704a450703978/Uncle.2018.Malayalam.True.HDTV.720p.UNTOUCHED.AVC.AAC-TMV.part1.rar
http://www.heroupload.us/570b053604d997d0/Uncle.2018.Malayalam.True.HDTV.720p.UNTOUCHED.AVC.AAC-TMV.part2.rar
http://www.heroupload.us/67ff993a213014d3/Uncle.2018.Malayalam.True.HDTV.720p.UNTOUCHED.AVC.AAC-TMV.part3.rar
http://www.heroupload.us/70c6a977fbf2d5e9/Uncle.2018.Malayalam.True.HDTV.720p.UNTOUCHED.AVC.AAC-TMV.part4.rar



http://filefloater.com/29Px/Uncle.2018.Malayalam.True.HDTV.720p.UNTOUCHED.AVC.AAC-TMV.part1.rar
http://filefloater.com/29Py/Uncle.2018.Malayalam.True.HDTV.720p.UNTOUCHED.AVC.AAC-TMV.part2.rar
http://filefloater.com/29Pz/Uncle.2018.Malayalam.True.HDTV.720p.UNTOUCHED.AVC.AAC-TMV.part3.rar
http://filefloater.com/2zQu/Uncle.2018.Malayalam.True.HDTV.720p.UNTOUCHED.AVC.AAC-TMV.part4.rar




Buy Premium From My Links & Support Me
шаблоны для dle 11.2