Aravindante Athidhikal (2018) Malayalam - 1CDRip - DVDRip - XviD - MP3 - ESubs-MTR » WarezUsa
Aravindante Athidhikal (2018) Malayalam - 1CDRip - DVDRip - XviD - MP3 - ESubs-MTR

Aravindante Athidhikal (2018) Malayalam - 1CDRip - DVDRip - XviD - MP3 - ESubs-MTR





Format                      : Matroska
Format version              : Version 4 / Version 2
File size                   : 719 MiB
Duration                    : 2 h 1 min
Overall bit rate            : 830 kb/s
Writing application         : Lavf56.25.101
Writing library             : Lavf56.25.101
FileExtension_Invalid       : mkv mk3d mka mks

Video
ID                          : 1
Format                      : MPEG-4 Visual
Codec ID                    : V_MPEG4/ISO/ASP
Codec ID/Info               : Advanced Simple Profile
Duration                    : 2 h 1 min
Bit rate                    : 717 kb/s
Width                       : 720 pixels
Height                      : 310 pixels
Display aspect ratio        : 2.35:1
Frame rate mode             : Constant
Frame rate                  : 23.976 (24000/1001) FPS
Compression mode            : Lossy
Bits/(Pixel*Frame)          : 0.134
Stream size                 : 622 MiB (86%)
Writing library             : Lavc56.26.100 libxvid
Language                    : English
Default                     : Yes
Forced                      : No
Statistics Tags Issue       : mkvmerge v20.0.0 ('I Am The Sun') 32-bit 2018-07-27 08:17:02 / Lavf56.25.101 
FromStats_BitRate           : 746798
FromStats_Duration          : 02:01:15.893000000
FromStats_FrameCount        : 174447
FromStats_StreamSize        : 679202813

Audio
ID                          : 2
Format                      : MPEG Audio
Format version              : Version 1
Format profile              : Layer 3
Mode                        : Joint stereo
Codec ID                    : A_MPEG/L3
Codec ID/Hint               : MP3
Duration                    : 2 h 1 min
Bit rate mode               : Constant
Bit rate                    : 96.0 kb/s
Channel(s)                  : 2 channels
Sampling rate               : 48.0 kHz
Compression mode            : Lossy
Delay relative to video     : -23 ms
Stream size                 : 83.3 MiB (12%)
Writing library             : Lavc56.26.100 libmp3lame
Language                    : English
Default                     : Yes
Forced                      : No
Statistics Tags Issue       : mkvmerge v20.0.0 ('I Am The Sun') 32-bit 2018-07-27 08:17:02 / Lavf56.25.101 
FromStats_BitRate           : 79587
FromStats_Duration          : 02:01:15.882000000
FromStats_FrameCount        : 341057
FromStats_StreamSize        : 72384034

Text
ID                          : 3
Format                      : UTF-8
Codec ID                    : S_TEXT/UTF8
Codec ID/Info               : UTF-8 Plain Text
Language                    : English
Default                     : No
Forced                      : No
Statistics Tags Issue       : mkvmerge v20.0.0 ('I Am The Sun') 32-bit 2018-07-27 08:17:02 / Lavf56.25.101 
FromStats_BitRate           : 64
FromStats_Duration          : 01:55:17.867000000
FromStats_FrameCount        : 1765
FromStats_StreamSize        : 56006






SINGLE DIRECT FAST LINKS
http://www.heroupload.us/dace130375b9c052/Aravindante.Athidhikal.2018.Malayalam.Org.DVDRip.XviD.MP3.ESubs-MTR.avi



http://filefloater.com/2zYu/Aravindante.Athidhikal.2018.Malayalam.Org.DVDRip.XviD.MP3.ESubs-MTR.avi



Buy Premium From My Links & Support Me
шаблоны для dle 11.2