Super Singh (2017) Punjabi - 1080p - WEB-DL - AVC - AAC-Team Jio Exclusive » WarezUsa
Super Singh (2017) Punjabi - 1080p - WEB-DL - AVC - AAC-Team Jio Exclusive

Super Singh (2017) Punjabi - 1080p - WEB-DL - AVC - AAC-Team Jio Exclusive





Format                      : MPEG-4
Format profile              : Base Media
Codec ID                    : isom (isom/iso2/avc1/mp41)
File size                   : 3.22 GiB
Duration                    : 2 h 28 min
Overall bit rate            : 3 093 kb/s
Writing application         : Lavf56.40.101

Video
ID                          : 1
Format                      : AVC
Format/Info                 : Advanced Video Codec
Format profile              : [email protected]
Format settings, CABAC      : Yes
Format settings, RefFrames  : 4 frames
Codec ID                    : avc1
Codec ID/Info               : Advanced Video Coding
Duration                    : 2 h 28 min
Bit rate                    : 3 000 kb/s
Width                       : 1 920 pixels
Height                      : 1 080 pixels
Display aspect ratio        : 16:9
Frame rate mode             : Constant
Frame rate                  : 25.000 FPS
Color space                 : YUV
Chroma subsampling          : 4:2:0
Bit depth                   : 8 bits
Scan type                   : Progressive
Bits/(Pixel*Frame)          : 0.058
Stream size                 : 3.14 GiB (98%)
Writing library             : x264 core 152 r2854 e9a5903
Encoding settings           : cabac=1 / ref=3 / deblock=1:0:0 / analyse=0x3:0x113 / me=hex / subme=7 / psy=1 / psy_rd=1.00:0.00 / mixed_ref=1 / me_range=16 / chroma_me=1 / trellis=1 / 8x8dct=1 / cqm=0 / deadzone=21,11 / fast_pskip=1 / chroma_qp_offset=-2 / threads=34 / lookahead_threads=5 / sliced_threads=0 / nr=0 / decimate=1 / interlaced=0 / bluray_compat=0 / constrained_intra=0 / bframes=3 / b_pyramid=2 / b_adapt=1 / b_bias=0 / direct=1 / weightb=1 / open_gop=0 / weightp=2 / keyint=50 / keyint_min=26 / scenecut=0 / intra_refresh=0 / rc_lookahead=40 / rc=abr / mbtree=1 / bitrate=3000 / ratetol=1.0 / qcomp=0.60 / qpmin=0 / qpmax=69 / qpstep=4 / ip_ratio=1.40 / aq=1:1.00

Audio
ID                          : 2
Format                      : AAC
Format/Info                 : Advanced Audio Codec
Format profile              : LC
Codec ID                    : 40
Duration                    : 2 h 28 min
Bit rate mode               : Constant
Bit rate                    : 64.0 kb/s
Channel(s)                  : 2 channels
Channel positions           : Front: L R
Sampling rate               : 48.0 kHz
Frame rate                  : 46.875 FPS (1024 SPF)
Compression mode            : Lossy
Stream size                 : 68.1 MiB (2%)
Default                     : Yes
Alternate group             : 1




SINGLE DIRECT FAST LINKS
http://www.heroupload.us/0db94ccab01e0d23/Super.Singh.2017.Punjabi.1080p.WEBDL.AVC-Team.Jio.Exclusive.mp4


http://filefloater.com/2A3q/Super.Singh.2017.Punjabi.1080p.WEBDL.AVC-Team.Jio.Exclusive.mp4

1GB LINKS

http://www.heroupload.us/46f5ac7ccf943636/Super.Singh.2017.Punjabi.1080p.WEBDL.AVC-Team.Jio.Exclusive.part1.rar
http://www.heroupload.us/76a1f24878e87919/Super.Singh.2017.Punjabi.1080p.WEBDL.AVC-Team.Jio.Exclusive.part2.rar
http://www.heroupload.us/79cbb0af4282daed/Super.Singh.2017.Punjabi.1080p.WEBDL.AVC-Team.Jio.Exclusive.part3.rar
http://www.heroupload.us/abe7eca983772d5d/Super.Singh.2017.Punjabi.1080p.WEBDL.AVC-Team.Jio.Exclusive.part4.rar



http://filefloater.com/2A3r/Super.Singh.2017.Punjabi.1080p.WEBDL.AVC-Team.Jio.Exclusive.part1.rar
http://filefloater.com/2A3s/Super.Singh.2017.Punjabi.1080p.WEBDL.AVC-Team.Jio.Exclusive.part2.rar
http://filefloater.com/2A3t/Super.Singh.2017.Punjabi.1080p.WEBDL.AVC-Team.Jio.Exclusive.part3.rar
http://filefloater.com/2A3u/Super.Singh.2017.Punjabi.1080p.WEBDL.AVC-Team.Jio.Exclusive.part4.rar


Buy Premium From My Links & Support Me
шаблоны для dle 11.2