C/o Surya (Nenjil Thunivirundhal) (2017) Hindi - 720p - HDRip - x264 - AAC-MCR » WarezUsa
C/o Surya (Nenjil Thunivirundhal) (2017) Hindi - 720p - HDRip - x264 - AAC-MCR

C/o Surya (Nenjil Thunivirundhal) (2017) Hindi - 720p - HDRip - x264 - AAC-MCR





Format                                   : Matroska
Format version                           : Version 4 / Version 2
File size                                : 797 MiB
Duration                                 : 1 h 42 min
Overall bit rate                         : 1 084 kb/s
Encoded date                             : UTC 2018-07-29 07:14:16
Writing application                      : mkvmerge v23.0.0 ('The Bride Said No') 64-bit
Writing library                          : libebml v1.3.6 + libmatroska v1.4.9

Video
ID                                       : 1
Format                                   : AVC
Format/Info                              : Advanced Video Codec
Format profile                           : [email protected]
Format settings                          : CABAC / 8 Ref Frames
Format settings, CABAC                   : Yes
Format settings, RefFrames               : 8 frames
Codec ID                                 : V_MPEG4/ISO/AVC
Duration                                 : 1 h 42 min
Bit rate                                 : 960 kb/s
Width                                    : 1 280 pixels
Height                                   : 544 pixels
Display aspect ratio                     : 2.35:1
Frame rate mode                          : Constant
Frame rate                               : 25.000 FPS
Color space                              : YUV
Chroma subsampling                       : 4:2:0
Bit depth                                : 8 bits
Scan type                                : Progressive
Bits/(Pixel*Frame)                       : 0.055
Stream size                              : 701 MiB (88%)
Writing library                          : x264 core 142 r2479 dd79a61
Encoding settings                        : cabac=1 / ref=8 / deblock=0:0:0 / analyse=0x3:0 / me=umh / subme=9 / psy=1 / psy_rd=1.00:0.00 / mixed_ref=0 / me_range=16 / chroma_me=1 / trellis=2 / 8x8dct=1 / cqm=0 / deadzone=21,11 / fast_pskip=1 / chroma_qp_offset=-2 / threads=72 / lookahead_threads=4 / sliced_threads=0 / nr=0 / decimate=1 / interlaced=0 / bluray_compat=0 / constrained_intra=0 / bframes=8 / b_pyramid=2 / b_adapt=1 / b_bias=0 / direct=1 / weightb=1 / open_gop=0 / weightp=2 / keyint=250 / keyint_min=25 / scenecut=0 / intra_refresh=0 / rc_lookahead=0 / rc=abr / mbtree=0 / bitrate=960 / ratetol=1.0 / qcomp=0.60 / qpmin=0 / qpmax=69 / qpstep=4 / vbv_maxrate=50000 / vbv_bufsize=62500 / nal_hrd=none / filler=0 / ip_ratio=1.40 / pb_ratio=1.30 / aq=0
Default                                  : Yes
Forced                                   : No
Color range                              : Limited
Color primaries                          : BT.709
Transfer characteristics                 : BT.709
Matrix coefficients                      : BT.709

Audio
ID                                       : 2
Format                                   : AAC
Format/Info                              : Advanced Audio Codec
Format profile                           : LC
Codec ID                                 : A_AAC-2
Duration                                 : 1 h 42 min
Bit rate                                 : 128 kb/s
Channel(s)                               : 2 channels
Channel positions                        : Front: L R
Sampling rate                            : 48.0 kHz
Frame rate                               : 46.875 FPS (1024 SPF)
Compression mode                         : Lossy
Delay relative to video                  : -126 ms
Stream size                              : 94.3 MiB (12%)
Language                                 : Hindi
Default                                  : Yes
Forced                                   : No





SINGLE DIRECT FAST LINKS

http://www.heroupload.us/2c3be01645cecf68/C.o.Surya.Nenjil.Thunivirundhal.Hindi.UNCUT.720p.HDRip.x264.AAC-MCR.mkv



http://filefloater.com/29Zo/C.o.Surya.Nenjil.Thunivirundhal.Hindi.UNCUT.720p.HDRip.x264.AAC-MCR.mkv



Buy Premium From My Links & Support Me
шаблоны для dle 11.2