Nadigaiyar Thilagam (2018) Tamil Ultra HD 4K - Untouched - AVC - Dolby ® 5.1 Esub-MTR » WarezUsa
Nadigaiyar Thilagam (2018) Tamil Ultra HD 4K - Untouched - AVC - Dolby ® 5.1 Esub-MTR

Nadigaiyar Thilagam (2018) Tamil Ultra HD 4K - Untouched - AVC - Dolby ® 5.1 Esub-MTR





Format                      : MPEG-4
Codec ID                    : M4V  (M4V /M4A /mp42/isom)
File size                   : 9.48 GiB
Duration                    : 2 h 40 min
Overall bit rate mode       : Constant
Overall bit rate            : 8 449 kb/s
Encoded date                : UTC 2018-07-21 14:23:15
Tagged date                 : UTC 2018-07-21 14:26:29
Rating                      : None

Video
ID                          : 1
Format                      : AVC
Format/Info                 : Advanced Video Codec
Format profile              : [email protected]
Format settings, CABAC      : Yes
Format settings, RefFrames  : 3 frames
Codec ID                    : avc1
Codec ID/Info               : Advanced Video Coding
Duration                    : 2 h 40 min
Bit rate mode               : Constant
Bit rate                    : 8 000 kb/s
Width                       : 3 840 pixels
Height                      : 2 160 pixels
Display aspect ratio        : 16:9
Frame rate mode             : Constant
Frame rate                  : 25.000 FPS
Standard                    : PAL
Color space                 : YUV
Chroma subsampling          : 4:2:0
Bit depth                   : 8 bits
Scan type                   : Progressive
Bits/(Pixel*Frame)          : 0.039
Stream size                 : 8.97 GiB (95%)
Language                    : English
Encoded date                : UTC 2018-07-21 14:23:15
Tagged date                 : UTC 2018-07-21 14:26:28
Color range                 : Limited
Color primaries             : BT.709
Transfer characteristics    : BT.709
Matrix coefficients         : BT.709

Audio
ID                          : 2
Format                      : AC-3
Format/Info                 : Audio Coding 3
Format settings, Endianness : Big
Codec ID                    : ac-3
Duration                    : 2 h 40 min
Bit rate mode               : Constant
Bit rate                    : 448 kb/s
Channel(s)                  : 6 channels
Channel positions           : Front: L C R, Side: L R, LFE
Sampling rate               : 48.0 kHz
Frame rate                  : 31.250 FPS (1536 SPF)
Bit depth                   : 16 bits
Compression mode            : Lossy
Stream size                 : 515 MiB (5%)
Service kind                : Complete Main
Default                     : Yes
Alternate group             : 1
Encoded date                : UTC 2018-07-21 14:23:15
Tagged date                 : UTC 2018-07-21 14:23:32





SINGLE DIRECT FAST LINKS

http://www.heroupload.us/66093ced7ba3a883/Nadigaiyar.Thilagam.2018.4K.v3.Untouched.UHD.MP4.ESubs.Tamil-MTR.m4v


1GB LINKS

http://www.heroupload.us/e56fb3bbcfb17a6c/Nadigaiyar.Thilagam.2018.4K.v3.Untouched.UHD.MP4.ESubs.Tamil-MTR.part01.rar
http://www.heroupload.us/d2d4f151684d36f0/Nadigaiyar.Thilagam.2018.4K.v3.Untouched.UHD.MP4.ESubs.Tamil-MTR.part02.rar
http://www.heroupload.us/ebeaa3904db3e34b/Nadigaiyar.Thilagam.2018.4K.v3.Untouched.UHD.MP4.ESubs.Tamil-MTR.part03.rar
http://www.heroupload.us/bc1b34778f126bb7/Nadigaiyar.Thilagam.2018.4K.v3.Untouched.UHD.MP4.ESubs.Tamil-MTR.part04.rar
http://www.heroupload.us/c40751adeca690d0/Nadigaiyar.Thilagam.2018.4K.v3.Untouched.UHD.MP4.ESubs.Tamil-MTR.part05.rar
http://www.heroupload.us/e0275b2fba92efb4/Nadigaiyar.Thilagam.2018.4K.v3.Untouched.UHD.MP4.ESubs.Tamil-MTR.part06.rar
http://www.heroupload.us/33936bf68ddd788d/Nadigaiyar.Thilagam.2018.4K.v3.Untouched.UHD.MP4.ESubs.Tamil-MTR.part07.rar
http://www.heroupload.us/74fb9483f158437e/Nadigaiyar.Thilagam.2018.4K.v3.Untouched.UHD.MP4.ESubs.Tamil-MTR.part08.rar
http://www.heroupload.us/e0b8be41ecd8ecf0/Nadigaiyar.Thilagam.2018.4K.v3.Untouched.UHD.MP4.ESubs.Tamil-MTR.part09.rar
http://www.heroupload.us/434b5557cc52a92e/Nadigaiyar.Thilagam.2018.4K.v3.Untouched.UHD.MP4.ESubs.Tamil-MTR.part10.rar
http://www.heroupload.us/8caca7c69da711f8/Nadigaiyar.Thilagam.2018.4K.v3.Untouched.UHD.MP4.ESubs.Tamil-MTR.srt



http://filefloater.com/29Yu/Nadigaiyar.Thilagam.2018.4K.v3.Untouched.UHD.MP4.ESubs.Tamil-MTR.part01.rar
http://filefloater.com/29Yv/Nadigaiyar.Thilagam.2018.4K.v3.Untouched.UHD.MP4.ESubs.Tamil-MTR.part02.rar
http://filefloater.com/29Yw/Nadigaiyar.Thilagam.2018.4K.v3.Untouched.UHD.MP4.ESubs.Tamil-MTR.part03.rar
http://filefloater.com/29Yx/Nadigaiyar.Thilagam.2018.4K.v3.Untouched.UHD.MP4.ESubs.Tamil-MTR.part04.rar
http://filefloater.com/29Yy/Nadigaiyar.Thilagam.2018.4K.v3.Untouched.UHD.MP4.ESubs.Tamil-MTR.part05.rar
http://filefloater.com/29Yz/Nadigaiyar.Thilagam.2018.4K.v3.Untouched.UHD.MP4.ESubs.Tamil-MTR.part06.rar
http://filefloater.com/2zZu/Nadigaiyar.Thilagam.2018.4K.v3.Untouched.UHD.MP4.ESubs.Tamil-MTR.part07.rar
http://filefloater.com/2zZv/Nadigaiyar.Thilagam.2018.4K.v3.Untouched.UHD.MP4.ESubs.Tamil-MTR.part08.rar
http://filefloater.com/2zZw/Nadigaiyar.Thilagam.2018.4K.v3.Untouched.UHD.MP4.ESubs.Tamil-MTR.part09.rar
http://filefloater.com/2zZA/Nadigaiyar.Thilagam.2018.4K.v3.Untouched.UHD.MP4.ESubs.Tamil-MTR.part10.rar
http://filefloater.com/2zZC/Nadigaiyar.Thilagam.2018.4K.v3.Untouched.UHD.MP4.ESubs.Tamil-MTR.srt




Buy Premium From My Links & Support Me
шаблоны для dle 11.2