Manasuku Nachindi (2018) Telugu - 720p - HDRip - x264 - AAC-TMV » WarezUsa
Manasuku Nachindi (2018) Telugu - 720p - HDRip - x264 - AAC-TMV

Manasuku Nachindi (2018) Telugu - 720p - HDRip - x264 - AAC-TMV





Format                      : Matroska
Format version              : Version 4 / Version 2
File size                   : 1.38 GiB
Duration                    : 2 h 24 min
Overall bit rate            : 1 365 kb/s
Encoded date                : UTC 2018-08-04 15:37:08
Writing application         : mkvmerge v8.2.0 ('World of Adventure') 64bit
Writing library             : libebml v1.3.1 + libmatroska v1.4.2

Video
ID                          : 1
Format                      : AVC
Format/Info                 : Advanced Video Codec
Format profile              : [email protected]
Format settings, CABAC      : Yes
Format settings, RefFrames  : 4 frames
Codec ID                    : V_MPEG4/ISO/AVC
Duration                    : 2 h 24 min
Bit rate                    : 1 302 kb/s
Width                       : 1 280 pixels
Height                      : 544 pixels
Display aspect ratio        : 2.35:1
Frame rate mode             : Constant
Frame rate                  : 25.000 FPS
Color space                 : YUV
Chroma subsampling          : 4:2:0
Bit depth                   : 8 bits
Scan type                   : Progressive
Bits/(Pixel*Frame)          : 0.075
Stream size                 : 1.30 GiB (94%)
Writing library             : x264 core 155 r2901 7d0ff22
Encoding settings           : cabac=1 / ref=3 / deblock=1:0:0 / analyse=0x1:0x111 / me=hex / subme=7 / psy=1 / psy_rd=1.00:0.00 / mixed_ref=1 / me_range=16 / chroma_me=1 / trellis=1 / 8x8dct=0 / cqm=0 / deadzone=21,11 / fast_pskip=1 / chroma_qp_offset=-2 / threads=12 / lookahead_threads=2 / sliced_threads=0 / nr=0 / decimate=1 / interlaced=0 / bluray_compat=0 / constrained_intra=0 / bframes=3 / b_pyramid=2 / b_adapt=1 / b_bias=0 / direct=1 / weightb=1 / open_gop=0 / weightp=2 / keyint=250 / keyint_min=25 / scenecut=40 / intra_refresh=0 / rc_lookahead=40 / rc=abr / mbtree=1 / bitrate=1302 / ratetol=1.0 / qcomp=0.60 / qpmin=0 / qpmax=69 / qpstep=4 / vbv_maxrate=20000 / vbv_bufsize=25000 / nal_hrd=none / filler=0 / ip_ratio=1.40 / aq=1:1.00
Language                    : Telugu
Default                     : Yes
Forced                      : No
Color range                 : Limited
Color primaries             : BT.709
Transfer characteristics    : BT.709
Matrix coefficients         : BT.709

Audio
ID                          : 2
Format                      : AAC
Format/Info                 : Advanced Audio Codec
Format profile              : LC
Codec ID                    : A_AAC
Duration                    : 2 h 24 min
Bit rate                    : 79.3 kb/s
Channel(s)                  : 2 channels
Channel positions           : Front: L R
Sampling rate               : 48.0 kHz
Frame rate                  : 46.875 FPS (1024 SPF)
Compression mode            : Lossy
Stream size                 : 82.0 MiB (6%)
Language                    : Telugu
Default                     : Yes
Forced                      : No



http://extraimage.net/images/2018/08/04/b32b61831733f4459588305ac76ad3d3.png



SINGLE DIRECT FAST LINKS

http://www.heroupload.us/eef6581a7d01147c/Manasuku.Nachindi.2018.Telugu.HDRip.720p.x264.AAC-TMV.mkv



http://filefloater.com/1K5u/Manasuku.Nachindi.2018.Telugu.HDRip.720p.x264.AAC-TMV.mkv





Buy Premium From My Links & Support Me
шаблоны для dle 11.2